<svg xmlns="http://www.w3.org/2000/svg">
<defs>
<font
       horiz-adv-x="2048"
       id="font22"
       horiz-origin-x="0"
       horiz-origin-y="0"
       vert-origin-x="512"
       vert-origin-y="768"
       vert-adv-y="1024">
      <!--  Font Name: Times New Roman
Vendor ID: TMC 
© 2017 The Monotype Corporation. All Rights Reserved. 

Hebrew OpenType Layout logic copyright © 2003 & 2007, Ralph Hancock & John Hudson. This layout logic for Biblical Hebrew is open source software under the MIT License; see embedded license description for details.
URL for more Information: http://www.adobe.com/go/font_vendor_id?ID=TMC&Name=Times%20New%20Roman&PSName=TimesNewRomanPSMT&applanguage=en_US-->
      <font-face
         font-family="Times_New_Roman_Regular"
         units-per-em="2048"
         ascent="1825"
         descent="443"
         id="font-face12" />
      <glyph
         unicode="d"
         horiz-adv-x="1024"
         d=" M 711 103 Q 644 33 580 2 516 -28 442 -28 292 -28 180 97 68 223 68 420 68 617 192 780 316 944 511 944 632 944 711 867 L 711 1036 Q 711 1193 704 1229 696 1265 680 1278 664 1291 640 1291 614 1291 571 1275 L 558 1310 831 1422 876 1422 876 363 Q 876 202 884 166 891 131 908 117 924 103 946 103 973 103 1018 120 L 1029 85 757 -28 711 -28 711 103 Z M 711 173 L 711 645 Q 705 713 675 769 645 825 596 853 546 882 499 882 411 882 342 803 251 699 251 499 251 297 339 189 427 82 535 82 626 82 711 173 Z"
         id="glyph12" />
      <glyph
         unicode="e"
         horiz-adv-x="909"
         d=" M 218 571 Q 217 367 317 251 417 135 552 135 642 135 709 184 775 234 820 354 L 851 334 Q 830 197 729 84 628 -28 476 -28 311 -28 194 100 76 229 76 446 76 681 197 812 317 944 499 944 653 944 752 842 851 741 851 571 L 218 571 Z M 218 629 L 642 629 Q 637 717 621 753 596 809 547 841 497 873 443 873 360 873 295 808 229 744 218 629 Z"
         id="glyph13" />
      <glyph
         unicode="s"
         horiz-adv-x="797"
         d=" M 656 943 L 656 631 623 631 Q 585 778 526 831 466 884 374 884 304 884 261 847 218 810 218 765 218 709 250 669 281 628 376 582 L 522 511 Q 725 412 725 250 725 125 631 48 536 -28 419 -28 335 -28 227 2 194 12 173 12 150 12 137 -14 L 104 -14 104 313 137 313 Q 165 173 244 102 323 31 421 31 490 31 534 71 577 112 577 169 577 238 529 285 480 332 335 404 190 476 145 534 100 591 100 678 100 791 178 867 255 943 378 943 432 943 509 920 560 905 577 905 593 905 602 912 611 919 623 943 L 656 943 Z"
         id="glyph14" />
      <glyph
         unicode="i"
         horiz-adv-x="569"
         d=" M 380 943 L 380 207 Q 380 121 393 92 405 64 430 50 454 36 519 36 L 519 0 74 0 74 36 Q 141 36 164 49 187 62 201 92 214 122 214 207 L 214 560 Q 214 709 205 753 198 785 183 797 168 810 142 810 114 810 74 795 L 60 831 336 943 380 943 Z M 297 1422 Q 339 1422 369 1392 398 1363 398 1321 398 1279 369 1249 339 1219 297 1219 255 1219 225 1249 195 1279 195 1321 195 1363 225 1392 254 1422 297 1422 Z"
         id="glyph15" />
      <glyph
         unicode="g"
         horiz-adv-x="1024"
         d=" M 309 334 Q 225 375 180 448 135 522 135 611 135 747 238 845 340 943 500 943 631 943 727 879 L 921 879 Q 964 879 971 876 978 874 981 868 987 859 987 836 987 810 982 800 979 795 972 792 964 789 921 789 L 802 789 Q 858 717 858 605 858 477 760 386 662 295 497 295 429 295 358 315 314 277 299 248 283 220 283 200 283 183 300 167 316 151 364 144 392 140 504 137 710 132 771 123 864 110 920 54 975 -2 975 -84 975 -197 869 -296 713 -442 462 -442 269 -442 136 -355 61 -305 61 -251 61 -227 72 -203 89 -166 142 -100 149 -91 244 8 192 39 171 63 149 88 149 119 149 154 178 201 206 248 309 334 Z M 299 0 Q 252 -51 228 -95 204 -139 204 -176 204 -224 262 -260 362 -322 551 -322 731 -322 817 -259 902 -195 902 -123 902 -71 851 -49 799 -27 645 -23 420 -17 299 0 Z M 483 895 Q 409 895 359 836 309 777 309 655 309 497 377 410 429 344 509 344 585 344 634 401 683 458 683 580 683 739 614 829 563 895 483 895 Z"
         id="glyph16" />
      <glyph
         unicode="n"
         horiz-adv-x="1024"
         d=" M 331 749 Q 492 943 638 943 713 943 767 905 821 868 853 782 875 722 875 598 L 875 207 Q 875 120 889 89 900 64 925 50 949 36 1015 36 L 1015 0 562 0 562 36 581 36 Q 645 36 671 55 696 75 706 113 710 128 710 207 L 710 582 Q 710 707 678 763 645 820 568 820 449 820 331 690 L 331 207 Q 331 114 342 92 356 63 381 49 405 36 480 36 L 480 0 27 0 27 36 47 36 Q 117 36 142 71 166 107 166 207 L 166 547 Q 166 712 159 748 151 784 136 797 120 810 94 810 66 810 27 795 L 12 831 288 943 331 943 331 749 Z"
         id="glyph17" />
      <glyph
         unicode=" "
         horiz-adv-x="512"
         id="glyph18" />
      <glyph
         unicode="a"
         horiz-adv-x="909"
         d=" M 583 132 Q 442 23 406 6 352 -19 291 -19 196 -19 135 46 73 111 73 217 73 284 103 333 144 401 246 461 347 521 583 607 L 583 643 Q 583 780 540 831 496 882 413 882 350 882 313 848 275 814 275 770 L 277 712 Q 277 666 254 641 230 616 192 616 155 616 132 642 108 668 108 713 108 799 196 871 284 943 443 943 565 943 643 902 702 871 730 805 748 762 748 629 L 748 318 Q 748 187 753 157 758 128 770 118 781 108 796 108 812 108 824 115 845 128 905 188 L 905 132 Q 793 -18 691 -18 642 -18 613 16 584 50 583 132 Z M 583 197 L 583 546 Q 432 486 388 461 309 417 275 369 241 321 241 264 241 192 284 144 327 97 383 97 459 97 583 197 Z"
         id="glyph19" />
      <glyph
         unicode="m"
         horiz-adv-x="1593"
         d=" M 336 748 Q 436 848 454 863 499 901 551 922 603 943 654 943 740 943 802 893 864 843 885 748 988 868 1059 905 1130 943 1205 943 1278 943 1335 905 1391 868 1424 783 1446 725 1446 601 L 1446 207 Q 1446 121 1459 89 1469 67 1496 51 1523 36 1584 36 L 1584 0 1132 0 1132 36 1151 36 Q 1210 36 1243 59 1266 75 1276 110 1280 127 1280 207 L 1280 601 Q 1280 713 1253 759 1214 823 1128 823 1075 823 1022 796 968 770 892 698 L 890 687 892 644 892 207 Q 892 113 903 90 913 67 942 51 971 36 1041 36 L 1041 0 578 0 578 36 Q 654 36 683 54 711 72 722 108 727 125 727 207 L 727 601 Q 727 713 694 762 650 826 571 826 517 826 464 797 381 753 336 698 L 336 207 Q 336 117 349 90 361 63 386 49 410 36 485 36 L 485 0 32 0 32 36 Q 95 36 120 49 145 63 158 92 171 122 171 207 L 171 557 Q 171 708 162 752 155 785 140 797 125 810 99 810 71 810 32 795 L 17 831 293 943 336 943 336 748 Z"
         id="glyph20" />
      <glyph
         unicode="h"
         horiz-adv-x="1024"
         d=" M 333 1422 L 333 752 Q 444 874 509 908 574 943 639 943 717 943 773 900 829 857 856 765 875 701 875 531 L 875 207 Q 875 120 889 88 899 64 923 50 947 36 1011 36 L 1011 0 561 0 561 36 582 36 Q 646 36 671 55 696 75 706 113 709 129 709 207 L 709 531 Q 709 681 694 728 678 775 644 798 610 822 562 822 513 822 460 796 407 770 333 691 L 333 207 Q 333 113 344 90 354 67 383 51 411 36 481 36 L 481 0 27 0 27 36 Q 88 36 123 55 143 65 155 93 167 121 167 207 L 167 1036 Q 167 1193 160 1229 152 1265 137 1278 121 1291 95 1291 74 1291 27 1275 L 13 1310 287 1422 333 1422 Z"
         id="glyph21" />
      <glyph
         unicode="r"
         horiz-adv-x="682"
         d=" M 332 943 L 332 737 Q 447 943 568 943 623 943 659 909 695 876 695 832 695 793 669 766 643 739 607 739 572 739 529 773 485 808 464 808 446 808 425 788 380 747 332 653 L 332 214 Q 332 138 351 99 364 72 397 54 430 36 492 36 L 492 0 23 0 23 36 Q 93 36 127 58 152 74 162 109 167 126 167 206 L 167 561 Q 167 721 161 751 154 782 137 796 119 810 93 810 62 810 23 795 L 13 831 290 943 332 943 Z"
         id="glyph22" />
    </font>
    <font
       horiz-adv-x="2048"
       id="font43"
       horiz-origin-x="0"
       horiz-origin-y="0"
       vert-origin-x="512"
       vert-origin-y="768"
       vert-adv-y="1024">
      <!--  Font Name: Times New Roman Bold
Vendor ID: TMC 
© 2017 The Monotype Corporation. All Rights Reserved. 

Hebrew OpenType Layout logic copyright © 2003 & 2007, Ralph Hancock & John Hudson. This layout logic for Biblical Hebrew is open source software under the MIT License; see embedded license description for details.
URL for more Information: http://www.adobe.com/go/font_vendor_id?ID=TMC&Name=Times%20New%20Roman&PSName=TimesNewRomanPS-BoldMT&applanguage=en_US-->
      <font-face
         font-family="Times_New_Roman_Bold"
         units-per-em="2048"
         ascent="1825"
         descent="443"
         id="font-face22" />
      <glyph
         unicode="M"
         horiz-adv-x="1933"
         d=" M 976 462 L 1344 1356 1896 1356 1896 1319 1852 1319 Q 1792 1319 1756 1298 1731 1284 1716 1251 1705 1227 1705 1126 L 1705 232 Q 1705 128 1716 102 1727 76 1761 56 1795 37 1852 37 L 1896 37 1896 0 1188 0 1188 37 1232 37 Q 1292 37 1328 58 1353 72 1368 106 1379 130 1379 232 L 1379 1237 859 0 835 0 307 1228 307 273 Q 307 173 312 150 325 100 369 68 412 37 505 37 L 505 0 41 0 41 37 55 37 Q 100 36 139 51 178 67 198 93 218 119 229 166 231 177 231 268 L 231 1126 Q 231 1229 220 1254 209 1280 175 1299 141 1319 84 1319 L 41 1319 41 1356 595 1356 976 462 Z"
         id="glyph23" />
      <glyph
         unicode="y"
         horiz-adv-x="1024"
         d=" M 498 -38 L 196 655 Q 128 812 96 848 63 884 17 898 L 17 935 514 935 514 898 Q 465 896 445 879 425 862 425 838 425 800 475 688 L 635 322 744 605 Q 803 756 803 815 803 852 779 874 754 896 692 898 L 692 935 1005 935 1005 898 Q 959 893 930 862 901 832 833 655 L 566 -38 Q 465 -298 416 -358 347 -442 243 -442 160 -442 109 -395 57 -347 57 -280 57 -222 93 -184 128 -146 180 -146 230 -146 261 -178 291 -210 292 -277 293 -315 301 -326 309 -337 324 -337 348 -337 375 -308 415 -266 469 -116 L 498 -38 Z"
         id="glyph24" />
      <glyph
         unicode=" "
         horiz-adv-x="512"
         id="glyph25" />
      <glyph
         unicode="L"
         horiz-adv-x="1366"
         d=" M 1293 476 L 1242 0 38 0 38 37 83 37 Q 142 37 178 58 204 72 218 106 229 130 229 232 L 229 1124 Q 229 1228 218 1254 207 1280 174 1299 140 1319 83 1319 L 38 1319 38 1356 761 1356 761 1319 702 1319 Q 643 1319 607 1298 581 1284 566 1250 555 1226 555 1124 L 555 260 Q 555 156 567 127 579 99 614 85 639 76 735 76 L 848 76 Q 956 76 1028 114 1100 152 1153 234 1205 316 1252 476 L 1293 476 Z"
         id="glyph26" />
      <glyph
         unicode="i"
         horiz-adv-x="569"
         d=" M 434 935 L 434 194 Q 434 95 457 67 480 40 547 36 L 547 0 42 0 42 36 Q 104 38 134 72 154 95 154 194 L 154 740 Q 154 839 131 866 108 894 42 898 L 42 935 434 935 Z M 294 1388 Q 359 1388 404 1342 449 1297 449 1233 449 1169 404 1124 358 1079 294 1079 230 1079 185 1124 140 1169 140 1233 140 1297 185 1342 230 1388 294 1388 Z"
         id="glyph27" />
      <glyph
         unicode="t"
         horiz-adv-x="682"
         d=" M 440 1277 L 440 935 662 935 662 836 440 836 440 259 Q 440 178 448 154 455 131 474 116 493 102 509 102 574 102 632 201 L 662 179 Q 581 -13 399 -13 310 -13 249 36 187 86 170 147 160 181 160 331 L 160 836 38 836 38 871 Q 164 960 253 1058 341 1156 407 1277 L 440 1277 Z"
         id="glyph28" />
      <glyph
         unicode="l"
         horiz-adv-x="569"
         d=" M 435 1356 L 435 194 Q 435 95 458 67 481 40 548 36 L 548 0 43 0 43 36 Q 105 38 135 72 155 95 155 194 L 155 1162 Q 155 1260 132 1287 109 1315 43 1319 L 43 1356 435 1356 Z"
         id="glyph29" />
      <glyph
         unicode="e"
         horiz-adv-x="909"
         d=" M 861 501 L 348 501 Q 357 315 447 207 516 124 613 124 673 124 722 157 771 191 827 278 L 861 256 Q 785 101 693 36 601 -28 480 -28 272 -28 165 132 79 261 79 452 79 686 206 824 332 963 502 963 644 963 749 846 853 730 861 501 Z M 615 568 Q 615 729 598 789 580 849 543 880 522 898 487 898 435 898 402 847 343 758 343 603 L 343 568 615 568 Z"
         id="glyph30" />
      <glyph
         unicode="P"
         horiz-adv-x="1251"
         d=" M 553 614 L 553 238 Q 553 128 567 99 580 71 615 54 649 37 741 37 L 741 0 52 0 52 37 Q 146 37 180 54 213 72 227 100 240 128 240 238 L 240 1118 Q 240 1228 227 1256 213 1285 179 1302 145 1319 52 1319 L 52 1356 643 1356 Q 935 1356 1062 1252 1189 1148 1189 992 1189 860 1107 766 1025 672 881 638 784 614 553 614 Z M 553 1278 L 553 692 Q 586 690 603 690 725 690 791 762 857 835 857 987 857 1138 791 1208 725 1278 594 1278 L 553 1278 Z"
         id="glyph31" />
      <glyph
         unicode="o"
         horiz-adv-x="1024"
         d=" M 510 963 Q 632 963 737 900 842 837 897 721 951 605 951 467 951 268 850 134 728 -28 513 -28 302 -28 188 120 74 268 74 463 74 664 191 813 307 963 510 963 Z M 514 892 Q 463 892 427 853 390 815 379 701 367 588 367 386 367 279 381 186 392 115 428 78 464 41 510 41 555 41 585 66 624 100 637 161 657 256 657 545 657 715 638 778 619 842 582 871 556 892 514 892 Z"
         id="glyph32" />
      <glyph
         unicode="n"
         horiz-adv-x="1139"
         d=" M 451 935 L 451 814 Q 523 892 589 927 655 963 731 963 822 963 882 912 942 862 962 787 978 730 978 568 L 978 204 Q 978 96 998 69 1017 43 1079 36 L 1079 0 606 0 606 36 Q 659 43 682 80 698 105 698 204 L 698 620 Q 698 735 689 765 680 795 659 811 637 828 611 828 525 828 451 705 L 451 204 Q 451 99 471 71 490 43 543 36 L 543 0 70 0 70 36 Q 129 42 154 74 171 96 171 204 L 171 732 Q 171 838 152 864 132 890 70 898 L 70 935 451 935 Z"
         id="glyph33" />
      <glyph
         unicode=":"
         horiz-adv-x="682"
         d=" M 341 308 Q 411 308 460 259 508 210 508 141 508 72 459 23 410 -25 341 -25 272 -25 224 23 175 72 175 141 175 210 224 259 272 308 341 308 Z M 342 962 Q 411 962 460 913 508 865 508 796 508 727 460 678 411 630 342 630 273 630 225 678 176 727 176 796 176 865 225 913 273 962 342 962 Z"
         id="glyph34" />
      <glyph
         unicode="F"
         horiz-adv-x="1251"
         d=" M 563 1278 L 563 721 602 721 Q 692 721 749 748 806 775 846 839 885 903 897 1012 L 932 1012 932 331 897 331 Q 878 524 794 585 709 647 602 647 L 563 647 563 232 Q 563 128 575 102 586 76 620 56 653 37 710 37 L 755 37 755 0 46 0 46 37 91 37 Q 150 37 186 58 212 72 226 106 237 130 237 232 L 237 1124 Q 237 1228 226 1254 215 1280 182 1299 148 1319 91 1319 L 46 1319 46 1356 1190 1356 1190 967 1149 967 Q 1135 1104 1078 1170 1020 1236 911 1263 851 1278 689 1278 L 563 1278 Z"
         id="glyph35" />
      <glyph
         unicode="r"
         horiz-adv-x="909"
         d=" M 457 935 L 457 723 Q 550 868 620 915 690 963 755 963 811 963 845 928 878 894 878 831 878 764 846 727 813 690 767 690 714 690 675 724 636 758 629 762 619 768 606 768 577 768 551 746 510 712 489 649 457 552 457 435 L 457 220 458 164 Q 458 107 465 91 477 64 501 51 524 39 580 36 L 580 0 75 0 75 36 Q 136 41 158 69 179 98 179 220 L 179 737 Q 179 817 171 839 161 867 142 880 123 893 75 898 L 75 935 457 935 Z"
         id="glyph36" />
      <glyph
         unicode="d"
         horiz-adv-x="1139"
         d=" M 978 1356 L 978 280 Q 978 171 984 151 992 118 1015 102 1037 86 1093 82 L 1093 49 698 -28 698 120 Q 627 34 572 3 516 -28 446 -28 267 -28 163 132 79 262 79 451 79 602 131 721 183 841 274 902 364 963 468 963 535 963 587 937 639 911 698 846 L 698 1128 Q 698 1235 689 1257 677 1286 653 1300 629 1314 563 1314 L 563 1356 978 1356 Z M 698 722 Q 624 864 517 864 480 864 456 844 419 813 396 735 372 657 372 496 372 319 398 234 424 149 469 111 492 92 532 92 620 92 698 230 L 698 722 Z"
         id="glyph37" />
      <glyph
         unicode="s"
         horiz-adv-x="797"
         d=" M 660 961 L 675 642 641 642 Q 580 784 515 836 449 888 384 888 343 888 314 860 285 833 285 797 285 770 305 745 337 704 484 604 631 505 678 435 724 366 724 280 724 202 685 127 646 52 575 12 504 -28 418 -28 351 -28 239 14 209 25 198 25 165 25 143 -25 L 110 -25 94 311 128 311 Q 173 179 252 113 330 47 400 47 448 47 479 76 509 106 509 148 509 196 479 231 449 266 345 337 192 443 147 499 81 581 81 680 81 788 156 875 230 963 371 963 447 963 518 926 545 911 562 911 580 911 591 918 602 926 626 961 L 660 961 Z"
         id="glyph38" />
      <glyph
         unicode="h"
         horiz-adv-x="1139"
         d=" M 451 1356 L 451 815 Q 528 896 592 929 656 963 725 963 813 963 876 913 938 863 959 795 979 728 979 568 L 979 203 Q 979 96 999 69 1019 43 1080 36 L 1080 0 606 0 606 36 Q 656 43 681 76 699 102 699 203 L 699 620 Q 699 736 690 765 681 795 660 811 638 828 611 828 571 828 533 800 495 773 451 704 L 451 203 Q 451 103 466 78 485 44 544 36 L 544 0 70 0 70 36 Q 129 42 154 74 171 96 171 203 L 171 1153 Q 171 1259 152 1285 132 1311 70 1319 L 70 1356 451 1356 Z"
         id="glyph39" />
      <glyph
         unicode="p"
         horiz-adv-x="1139"
         d=" M 431 95 L 431 -253 Q 431 -325 443 -351 454 -377 478 -389 502 -401 572 -401 L 572 -438 39 -438 39 -401 Q 101 -399 131 -366 151 -343 151 -247 L 151 740 Q 151 839 128 866 105 894 39 898 L 39 935 431 935 431 812 Q 480 884 531 916 604 963 690 963 793 963 878 898 962 833 1006 718 1050 604 1050 472 1050 330 1005 212 959 95 873 33 786 -28 680 -28 603 -28 536 6 486 32 431 95 Z M 431 196 Q 517 74 615 74 669 74 704 131 756 215 756 451 756 693 699 782 661 841 597 841 496 841 431 695 L 431 196 Z"
         id="glyph40" />
      <glyph
         unicode="a"
         horiz-adv-x="1024"
         d=" M 585 138 Q 414 -13 278 -13 198 -13 145 39 92 92 92 171 92 278 184 363 276 449 585 591 L 585 685 Q 585 791 574 818 562 846 530 866 498 887 458 887 393 887 351 858 325 840 325 816 325 795 353 764 391 721 391 681 391 632 355 597 318 563 259 563 196 563 154 601 111 639 111 690 111 762 168 827 225 893 327 928 429 963 539 963 672 963 750 906 827 850 850 784 864 742 864 591 L 864 228 Q 864 164 869 147 874 131 884 123 894 115 907 115 933 115 960 152 L 990 128 Q 940 54 887 20 833 -13 765 -13 685 -13 640 24 595 62 585 138 Z M 585 211 L 585 524 Q 464 453 405 372 366 318 366 263 366 217 399 182 424 155 469 155 519 155 585 211 Z"
         id="glyph41" />
      <glyph
         unicode="g"
         horiz-adv-x="1024"
         d=" M 437 -138 Q 335 -138 302 -155 245 -186 245 -239 245 -290 304 -332 363 -373 526 -373 665 -373 745 -336 824 -299 824 -232 824 -207 809 -190 782 -160 728 -149 673 -138 437 -138 Z M 669 924 L 984 924 984 814 805 814 Q 854 765 873 725 897 671 897 612 897 512 842 438 786 365 691 323 595 282 521 282 515 282 401 287 356 287 326 257 295 228 295 187 295 151 323 128 350 105 412 105 L 585 107 Q 795 107 874 61 987 -3 987 -136 987 -221 935 -291 883 -360 798 -393 669 -442 501 -442 375 -442 271 -418 167 -393 122 -350 77 -306 77 -258 77 -212 112 -176 146 -139 240 -114 110 -50 110 64 110 133 163 198 216 263 331 311 197 360 137 440 77 520 77 625 77 762 189 862 301 963 477 963 570 963 669 924 Z M 496 901 Q 438 901 398 842 358 784 358 600 358 451 398 395 437 340 491 340 551 340 591 395 631 450 631 609 631 788 586 853 554 901 496 901 Z"
         id="glyph42" />
      <glyph
         unicode="c"
         horiz-adv-x="909"
         d=" M 832 241 L 863 217 Q 797 93 699 32 600 -28 489 -28 302 -28 190 113 78 254 78 452 78 643 180 788 303 963 519 963 664 963 750 890 835 817 835 727 835 670 801 636 766 602 710 602 651 602 613 641 574 680 565 780 559 843 536 868 513 893 482 893 434 893 400 842 348 765 348 606 348 474 390 353 432 233 505 174 560 131 635 131 684 131 728 154 772 177 832 241 Z"
         id="glyph43" />
    </font>
</defs>
</svg>
