<svg xmlns="http://www.w3.org/2000/svg">
<defs>
<font
       horiz-adv-x="2048"
       id="font25"
       horiz-origin-x="0"
       horiz-origin-y="0"
       vert-origin-x="512"
       vert-origin-y="768"
       vert-adv-y="1024">
      <!--  Font Name: Times New Roman
Vendor ID: TMC 
© 2017 The Monotype Corporation. All Rights Reserved. 

Hebrew OpenType Layout logic copyright © 2003 & 2007, Ralph Hancock & John Hudson. This layout logic for Biblical Hebrew is open source software under the MIT License; see embedded license description for details.
URL for more Information: http://www.adobe.com/go/font_vendor_id?ID=TMC&Name=Times%20New%20Roman&PSName=TimesNewRomanPSMT&applanguage=en_US-->
      <font-face
         font-family="Times_New_Roman_Regular"
         units-per-em="2048"
         ascent="1825"
         descent="443"
         id="font-face2" />
      <glyph
         unicode="0"
         horiz-adv-x="1024"
         d=" M 74 670 Q 74 902 144 1069 214 1237 330 1319 420 1384 516 1384 672 1384 796 1225 951 1028 951 691 951 455 883 290 815 125 710 50 604 -24 506 -24 312 -24 183 205 74 398 74 670 Z M 270 645 Q 270 365 339 188 396 39 509 39 563 39 621 87 679 136 709 250 755 422 755 735 755 967 707 1122 671 1237 614 1285 573 1318 515 1318 447 1318 394 1257 322 1174 296 996 270 818 270 645 Z"
         id="glyph2" />
      <glyph
         unicode="1"
         horiz-adv-x="1024"
         d=" M 240 1223 L 570 1384 603 1384 603 239 Q 603 125 613 97 622 69 652 54 682 39 774 37 L 774 0 264 0 264 37 Q 360 39 388 53 416 68 427 92 438 117 438 239 L 438 971 Q 438 1119 428 1161 421 1193 403 1208 384 1223 358 1223 321 1223 255 1192 L 240 1223 Z"
         id="glyph3" />
      <glyph
         unicode="_"
         horiz-adv-x="1024"
         d=" M 1042 -442 L -17 -442 -17 -358 1042 -358 1042 -442 Z"
         id="glyph4" />
      <glyph
         unicode="C"
         horiz-adv-x="1366"
         d=" M 1233 1387 L 1264 926 1233 926 Q 1171 1133 1056 1224 941 1315 780 1315 645 1315 536 1246 427 1178 365 1028 302 878 302 655 302 471 361 336 420 201 539 129 657 57 809 57 941 57 1042 113 1143 170 1264 338 L 1295 318 Q 1193 137 1057 53 921 -31 734 -31 397 -31 212 219 74 405 74 657 74 860 165 1030 256 1200 416 1293 575 1387 764 1387 911 1387 1054 1315 1096 1293 1114 1293 1141 1293 1161 1312 1187 1339 1198 1387 L 1233 1387 Z"
         id="glyph5" />
      <glyph
         unicode="4"
         horiz-adv-x="1024"
         d=" M 953 500 L 953 358 771 358 771 0 606 0 606 358 32 358 32 486 661 1384 771 1384 771 500 953 500 Z M 606 500 L 606 1173 130 500 606 500 Z"
         id="glyph6" />
      <glyph
         unicode="b"
         horiz-adv-x="1024"
         d=" M 315 694 L 315 146 Q 366 96 421 70 475 45 532 45 623 45 702 145 780 245 780 436 780 612 702 706 623 801 523 801 470 801 417 774 377 754 315 694 Z M 315 758 Q 448 943 602 943 743 943 848 822 953 702 953 493 953 249 791 100 652 -28 481 -28 401 -28 319 1 236 30 150 88 L 150 1037 Q 150 1193 143 1229 135 1265 119 1278 103 1291 79 1291 51 1291 9 1275 L -5 1310 270 1422 315 1422 315 758 Z"
         id="glyph7" />
      <glyph
         unicode="p"
         horiz-adv-x="1024"
         d=" M -2 825 L 280 939 318 939 318 725 Q 389 846 461 894 532 943 611 943 749 943 841 835 954 703 954 491 954 254 818 99 706 -28 536 -28 462 -28 408 -7 368 8 318 53 L 318 -226 Q 318 -320 330 -346 341 -371 370 -386 398 -401 473 -401 L 473 -438 -7 -438 -7 -401 18 -401 Q 73 -402 112 -380 131 -369 142 -345 152 -320 152 -220 L 152 646 Q 152 735 144 759 136 783 119 795 101 807 71 807 47 807 10 793 L -2 825 Z M 318 666 L 318 324 Q 318 213 327 178 341 120 396 76 450 32 533 32 633 32 695 110 776 212 776 397 776 607 684 720 620 798 532 798 484 798 437 774 401 756 318 666 Z"
         id="glyph8" />
      <glyph
         unicode="R"
         horiz-adv-x="1366"
         d=" M 1384 0 L 1022 0 563 634 Q 512 632 480 632 467 632 452 632 437 633 421 634 L 421 240 Q 421 112 449 81 487 37 563 37 L 616 37 616 0 35 0 35 37 86 37 Q 172 37 209 93 230 124 230 240 L 230 1116 Q 230 1244 202 1275 163 1319 86 1319 L 35 1319 35 1356 529 1356 Q 745 1356 848 1324 950 1293 1022 1208 1093 1124 1093 1007 1093 882 1012 790 930 698 759 660 L 1039 271 Q 1135 137 1204 93 1273 49 1384 37 L 1384 0 Z M 421 697 Q 440 697 454 696 468 696 477 696 671 696 770 780 868 864 868 994 868 1121 789 1200 709 1280 578 1280 520 1280 421 1261 L 421 697 Z"
         id="glyph9" />
      <glyph
         unicode="o"
         horiz-adv-x="1024"
         d=" M 512 943 Q 720 943 846 785 953 650 953 475 953 352 894 226 835 100 732 36 628 -28 501 -28 294 -28 172 137 69 276 69 449 69 575 132 699 194 824 296 883 398 943 512 943 Z M 481 878 Q 428 878 375 846 321 815 288 736 255 657 255 533 255 333 335 188 414 43 544 43 641 43 704 123 767 203 767 398 767 642 662 782 591 878 481 878 Z"
         id="glyph10" />
      <glyph
         unicode="y"
         horiz-adv-x="1024"
         d=" M 12 916 L 439 916 439 879 418 879 Q 373 879 351 859 328 840 328 811 328 772 361 703 L 584 241 789 747 Q 806 788 806 828 806 846 799 855 791 866 774 872 757 879 714 879 L 714 916 1012 916 1012 879 Q 975 875 955 863 935 851 911 818 902 804 877 741 L 504 -173 Q 450 -306 363 -374 275 -442 194 -442 135 -442 97 -408 59 -374 59 -330 59 -288 87 -263 114 -237 162 -237 195 -237 252 -259 292 -274 302 -274 332 -274 368 -243 403 -212 439 -123 L 504 36 175 727 Q 160 758 127 804 102 839 86 851 63 867 12 879 L 12 916 Z"
         id="glyph11" />
      <glyph
         unicode="a"
         horiz-adv-x="909"
         d=" M 583 132 Q 442 23 406 6 352 -19 291 -19 196 -19 135 46 73 111 73 217 73 284 103 333 144 401 246 461 347 521 583 607 L 583 643 Q 583 780 540 831 496 882 413 882 350 882 313 848 275 814 275 770 L 277 712 Q 277 666 254 641 230 616 192 616 155 616 132 642 108 668 108 713 108 799 196 871 284 943 443 943 565 943 643 902 702 871 730 805 748 762 748 629 L 748 318 Q 748 187 753 157 758 128 770 118 781 108 796 108 812 108 824 115 845 128 905 188 L 905 132 Q 793 -18 691 -18 642 -18 613 16 584 50 583 132 Z M 583 197 L 583 546 Q 432 486 388 461 309 417 275 369 241 321 241 264 241 192 284 144 327 97 383 97 459 97 583 197 Z"
         id="glyph12" />
      <glyph
         unicode="l"
         horiz-adv-x="569"
         d=" M 379 1422 L 379 207 Q 379 121 392 93 404 65 430 50 456 36 527 36 L 527 0 78 0 78 36 Q 141 36 164 49 187 62 200 92 213 122 213 207 L 213 1039 Q 213 1194 206 1229 199 1265 184 1278 168 1291 144 1291 118 1291 78 1275 L 61 1310 334 1422 379 1422 Z"
         id="glyph13" />
      <glyph
         unicode="G"
         horiz-adv-x="1479"
         d=" M 1257 1387 L 1292 959 1257 959 Q 1204 1119 1120 1200 999 1317 809 1317 550 1317 415 1112 302 939 302 700 302 506 377 346 452 186 574 111 695 37 823 37 898 37 968 56 1038 75 1103 112 L 1103 504 Q 1103 606 1088 637 1072 669 1040 685 1007 702 925 702 L 925 740 1450 740 1450 702 1425 702 Q 1347 702 1318 650 1298 613 1298 504 L 1298 89 Q 1183 27 1071 -2 959 -31 822 -31 429 -31 225 221 72 410 72 657 72 836 158 1000 260 1195 438 1300 587 1387 790 1387 864 1387 925 1375 985 1363 1096 1322 1152 1301 1171 1301 1190 1301 1204 1318 1217 1336 1220 1387 L 1257 1387 Z"
         id="glyph14" />
      <glyph
         unicode="u"
         horiz-adv-x="1024"
         d=" M 867 916 L 867 361 Q 867 202 875 166 882 131 899 117 915 103 937 103 968 103 1007 120 L 1021 85 747 -28 702 -28 702 166 Q 584 38 522 5 460 -28 391 -28 314 -28 258 16 201 61 179 131 157 201 157 329 L 157 738 Q 157 803 143 828 129 853 102 866 74 880 2 879 L 2 916 323 916 323 303 Q 323 175 368 135 412 95 475 95 518 95 573 122 627 149 702 225 L 702 744 Q 702 822 674 849 645 877 555 879 L 555 916 867 916 Z"
         id="glyph15" />
      <glyph
         unicode="r"
         horiz-adv-x="682"
         d=" M 332 943 L 332 737 Q 447 943 568 943 623 943 659 909 695 876 695 832 695 793 669 766 643 739 607 739 572 739 529 773 485 808 464 808 446 808 425 788 380 747 332 653 L 332 214 Q 332 138 351 99 364 72 397 54 430 36 492 36 L 492 0 23 0 23 36 Q 93 36 127 58 152 74 162 109 167 126 167 206 L 167 561 Q 167 721 161 751 154 782 137 796 119 810 93 810 62 810 23 795 L 13 831 290 943 332 943 Z"
         id="glyph16" />
      <glyph
         unicode="d"
         horiz-adv-x="1024"
         d=" M 711 103 Q 644 33 580 2 516 -28 442 -28 292 -28 180 97 68 223 68 420 68 617 192 780 316 944 511 944 632 944 711 867 L 711 1036 Q 711 1193 704 1229 696 1265 680 1278 664 1291 640 1291 614 1291 571 1275 L 558 1310 831 1422 876 1422 876 363 Q 876 202 884 166 891 131 908 117 924 103 946 103 973 103 1018 120 L 1029 85 757 -28 711 -28 711 103 Z M 711 173 L 711 645 Q 705 713 675 769 645 825 596 853 546 882 499 882 411 882 342 803 251 699 251 499 251 297 339 189 427 82 535 82 626 82 711 173 Z"
         id="glyph17" />
      <glyph
         unicode="P"
         horiz-adv-x="1139"
         d=" M 420 635 L 420 240 Q 420 112 448 81 486 37 563 37 L 615 37 615 0 34 0 34 37 85 37 Q 171 37 208 93 228 124 228 240 L 228 1116 Q 228 1244 201 1275 162 1319 85 1319 L 34 1319 34 1356 531 1356 Q 713 1356 818 1318 923 1281 995 1192 1067 1103 1067 981 1067 815 958 711 848 607 648 607 599 607 542 614 485 621 420 635 Z M 420 692 Q 473 682 514 677 555 672 584 672 688 672 764 752 839 833 839 961 839 1049 803 1124 767 1200 701 1237 635 1275 551 1275 500 1275 420 1256 L 420 692 Z"
         id="glyph18" />
      <glyph
         unicode="e"
         horiz-adv-x="909"
         d=" M 218 571 Q 217 367 317 251 417 135 552 135 642 135 709 184 775 234 820 354 L 851 334 Q 830 197 729 84 628 -28 476 -28 311 -28 194 100 76 229 76 446 76 681 197 812 317 944 499 944 653 944 752 842 851 741 851 571 L 218 571 Z M 218 629 L 642 629 Q 637 717 621 753 596 809 547 841 497 873 443 873 360 873 295 808 229 744 218 629 Z"
         id="glyph19" />
      <glyph
         unicode="g"
         horiz-adv-x="1024"
         d=" M 309 334 Q 225 375 180 448 135 522 135 611 135 747 238 845 340 943 500 943 631 943 727 879 L 921 879 Q 964 879 971 876 978 874 981 868 987 859 987 836 987 810 982 800 979 795 972 792 964 789 921 789 L 802 789 Q 858 717 858 605 858 477 760 386 662 295 497 295 429 295 358 315 314 277 299 248 283 220 283 200 283 183 300 167 316 151 364 144 392 140 504 137 710 132 771 123 864 110 920 54 975 -2 975 -84 975 -197 869 -296 713 -442 462 -442 269 -442 136 -355 61 -305 61 -251 61 -227 72 -203 89 -166 142 -100 149 -91 244 8 192 39 171 63 149 88 149 119 149 154 178 201 206 248 309 334 Z M 299 0 Q 252 -51 228 -95 204 -139 204 -176 204 -224 262 -260 362 -322 551 -322 731 -322 817 -259 902 -195 902 -123 902 -71 851 -49 799 -27 645 -23 420 -17 299 0 Z M 483 895 Q 409 895 359 836 309 777 309 655 309 497 377 410 429 344 509 344 585 344 634 401 683 458 683 580 683 739 614 829 563 895 483 895 Z"
         id="glyph20" />
      <glyph
         unicode="s"
         horiz-adv-x="797"
         d=" M 656 943 L 656 631 623 631 Q 585 778 526 831 466 884 374 884 304 884 261 847 218 810 218 765 218 709 250 669 281 628 376 582 L 522 511 Q 725 412 725 250 725 125 631 48 536 -28 419 -28 335 -28 227 2 194 12 173 12 150 12 137 -14 L 104 -14 104 313 137 313 Q 165 173 244 102 323 31 421 31 490 31 534 71 577 112 577 169 577 238 529 285 480 332 335 404 190 476 145 534 100 591 100 678 100 791 178 867 255 943 378 943 432 943 509 920 560 905 577 905 593 905 602 912 611 919 623 943 L 656 943 Z"
         id="glyph21" />
      <glyph
         unicode="T"
         horiz-adv-x="1251"
         d=" M 1185 1356 L 1200 1038 1162 1038 Q 1151 1122 1132 1158 1101 1216 1050 1243 998 1271 914 1271 L 723 1271 723 235 Q 723 110 750 79 788 37 867 37 L 914 37 914 0 339 0 339 37 387 37 Q 473 37 509 89 531 121 531 235 L 531 1271 368 1271 Q 273 1271 233 1257 181 1238 144 1184 107 1130 100 1038 L 62 1038 78 1356 1185 1356 Z"
         id="glyph22" />
      <glyph
         unicode="v"
         horiz-adv-x="1024"
         d=" M 17 916 L 448 916 448 879 420 879 Q 381 879 361 860 340 841 340 809 340 774 361 726 L 574 220 788 745 Q 811 801 811 830 811 844 803 853 792 868 775 873 758 879 706 879 L 706 916 1005 916 1005 879 Q 953 875 933 858 898 828 870 758 L 545 -28 504 -28 177 745 Q 155 799 135 822 115 846 84 862 67 871 17 879 L 17 916 Z"
         id="glyph23" />
      <glyph
         unicode="i"
         horiz-adv-x="569"
         d=" M 380 943 L 380 207 Q 380 121 393 92 405 64 430 50 454 36 519 36 L 519 0 74 0 74 36 Q 141 36 164 49 187 62 201 92 214 122 214 207 L 214 560 Q 214 709 205 753 198 785 183 797 168 810 142 810 114 810 74 795 L 60 831 336 943 380 943 Z M 297 1422 Q 339 1422 369 1392 398 1363 398 1321 398 1279 369 1249 339 1219 297 1219 255 1219 225 1249 195 1279 195 1321 195 1363 225 1392 254 1422 297 1422 Z"
         id="glyph24" />
      <glyph
         unicode="w"
         horiz-adv-x="1479"
         d=" M 13 916 L 397 916 397 879 Q 344 875 328 860 311 845 311 817 311 786 328 742 L 524 215 721 644 669 779 Q 645 839 606 862 584 876 524 879 L 524 916 960 916 960 879 Q 888 876 858 853 838 837 838 802 838 782 846 761 L 1054 235 1247 742 Q 1267 796 1267 828 1267 847 1248 862 1228 877 1171 879 L 1171 916 1460 916 1460 879 Q 1373 866 1332 761 L 1026 -28 985 -28 756 557 489 -28 452 -28 158 742 Q 129 815 101 840 73 866 13 879 L 13 916 Z"
         id="glyph25" />
    </font>
</defs>
</svg>
